Вернуться   Гей-пираты | Gay-Pirates > Любительское видео и фото / Amateur Videos & Photos > Видео с веб-сайтов / Videos from Webcam Sites

Видео с веб-сайтов / Videos from Webcam Sites Сайты вебкамер. Webcam Sites.

+ Ответ
 
Опции темы
  #29  
Старый 14.02.2019, 18:25
3453 вне форума 3453

Местный - Neighbor

Аватар для 3453
ASEAN
Gay pirates Гей пираты
Регистрация: 02.06.2012
Сообщений: 204

Total 'Thanks' Received by This User = 5 за это сообщение
5,705 всего

Репутация: 8018


По умолчанию






beautiful nice view cum
Format : AVI
Format/Info : Audio Video Interleave
File size : 163 MiB
Duration : 9 min 1 s
Overall bit rate : 2 522 kb/s

Video
ID : 0
Format : AVC
Format/Info : Advanced Video Codec
Format profile : [email protected]
Format settings, CABAC : Yes
Format settings, ReFrames : 1 frame
Format settings, GOP : M=1, N=25
Codec ID : X264
Codec ID/Info : XiWave GNU GPL x264 MPEG-4
Duration : 9 min 1 s
Bit rate : 2 381 kb/s
Width : 608 pixels
Height : 452 pixels
Display aspect ratio : 4:3
Frame rate mode : Variable
Frame rate : 30.000 FPS
Color space : YUV
Chroma subsampling : 4:2:0
Bit depth : 8 bits
Scan type : Progressive
Bits/(Pixel*Frame) : 0.289

Gigapeta
Скрытая гей ссылка (Вы должны быть зарегистрированы и нажать на кнопку "Спасибо")

Последний раз редактировалось 3453; 14.02.2019 в 18:28.
Комментариев к сообщению: 0  Комментарий  
Who Said Thanks:
High0Druid (27.02.2019), achime (16.02.2019), CARP98 (16.02.2019), camlad (16.02.2019), smokie (14.02.2019)
  #30  
Старый 14.02.2019, 18:30
3453 вне форума 3453

Местный - Neighbor

Аватар для 3453
ASEAN
Gay pirates Гей пираты
Регистрация: 02.06.2012
Сообщений: 204

Total 'Thanks' Received by This User = 3 за это сообщение
5,705 всего

Репутация: 8018


По умолчанию






beautiful nice view cum
Format : MPEG-4
Format profile : Base Media / Version 2
Codec ID : mp42 (mp42)
File size : 145 MiB
Duration : 20 min 12 s
Overall bit rate mode : Constant
Overall bit rate : 1 004 kb/s

Video
ID : 1
Format : MPEG-4 Visual
Format profile : [email protected]
Format settings, BVOP : No
Format settings, QPel : No
Format settings, GMC : No warppoints
Format settings, Matrix : Default (H.263)
Codec ID : 20
Duration : 20 min 12 s
Bit rate mode : Constant
Bit rate : 1 000 kb/s
Width : 480 pixels
Height : 320 pixels
Display aspect ratio : 3:2
Frame rate mode : Constant
Frame rate : 25.000 FPS
Color space : YUV
Chroma subsampling : 4:2:0
Bit depth : 8 bits
Scan type : Progressive
Compression mode : Lossy
Bits/(Pixel*Frame) : 0.260
Stream size : 145 MiB (100%)
Language : English


Gigapeta
Скрытая гей ссылка (Вы должны быть зарегистрированы и нажать на кнопку "Спасибо")
Комментариев к сообщению: 0  Комментарий  
Who Said Thanks:
High0Druid (27.02.2019), achime (16.02.2019), smokie (14.02.2019)
  #31  
Старый 14.02.2019, 20:20
3453 вне форума 3453

Местный - Neighbor

Аватар для 3453
ASEAN
Gay pirates Гей пираты
Регистрация: 02.06.2012
Сообщений: 204

Total 'Thanks' Received by This User = 12 за это сообщение
5,705 всего

Репутация: 8018


По умолчанию






beautiful nice view cum
Format : AVI
Format/Info : Audio Video Interleave
File size : 1.33 GiB
Duration : 1 h 16 min
Overall bit rate : 2 503 kb/s

Video
ID : 0
Format : AVC
Format/Info : Advanced Video Codec
Format profile : [email protected]
Format settings, CABAC : Yes
Format settings, ReFrames : 1 frame
Format settings, GOP : M=1, N=25
Codec ID : X264
Codec ID/Info : XiWave GNU GPL x264 MPEG-4
Duration : 1 h 16 min
Bit rate : 2 361 kb/s
Width : 608 pixels
Height : 452 pixels
Display aspect ratio : 4:3
Frame rate mode : Variable
Frame rate : 30.000 FPS
Color space : YUV
Chroma subsampling : 4:2:0
Bit depth : 8 bits
Scan type : Progressive
Bits/(Pixel*Frame) : 0.286
Stream size : 1.26 GiB (94%)


Gigapeta
Скрытая гей ссылка (Вы должны быть зарегистрированы и нажать на кнопку "Спасибо")
Комментариев к сообщению: 0  Комментарий  
Who Said Thanks:
High0Druid (27.02.2019), gingwa123 (21.02.2019), bellini (20.02.2019), tamagochi (18.02.2019), marvinate (17.02.2019), Artmodel (17.02.2019), KevinDasura (17.02.2019), achime (16.02.2019), unidentified (15.02.2019), list (15.02.2019), Denn11 (15.02.2019), djj081961 (14.02.2019)
+ Ответ

Опции темы


Похожие темы
Тема Автор Раздел Ответов Последнее сообщение
Dreamleaf of Chaturbate jose_libog123 Видео с веб-сайтов / Videos from Webcam Sites 1 27.03.2015 16:19
chaturbate vids mds321 Видео с веб-сайтов / Videos from Webcam Sites 71 01.11.2012 04:36
jman - Chaturbate collection jiverse01 Видео с веб-сайтов / Videos from Webcam Sites 63 04.01.2012 23:22

Текущее время: 07:20. Часовой пояс GMT +1.
Обратная связь [email protected]?s=98687e6c50acae1f9121b004c71ca6e8 - Гей-пираты | Gay-Pirates.COM - Вверх

Гей порно фото и видео скачать бесплатно.

ПОРНО для всех.

гей порно секс форум бесплатно. Gay porno sex forum free

Новинки видео с платных сайтов и любительское видео.

Гей форум

Здесь вы сможете гей видео скачать бесплатно. Знакомства для геев. Скачать гей фото. Художественное гей кино. Гей-пираты форум. Гей пароли бесплатно. Здесь вы можете бесплатно скачать гей фильмы, гей фотографии, гей архивы. Форум для обмена гей порно. Все бесплатно. Гей секс. Поговорим о сексе? Я парень и ты парень. Мы не пидоры, не пидорасы, не подстилки, не соски и ебаные дырки. Мы геи. Мы хотим видеть красоту мальчиков, парней и мужчин. Разумеется, при условии, что им более 18 лет. 18+ - обязательное условие. Фотографии голых парней, видео, когда они дрочат (мастурбируют), кончают или сосут - все это должны видеть только совершеннолетние. 18+ Есть фотографии или видео, так поделись им с нами! Не обязательно порно. Можно эротика или просто голое тело. Запах спермы мы сможем ощутить. ;) Секс видео и фото. Пиратское гей-видео у нас. Гей рестлинг GAY

Гей форум. Рассказы на сексуальные темы. Хотите понаблюдать за гей сексом? Милости просим к нам, на наш форум. На форуме приветствуется, если вы будете делиться видео и фотографиями друг с другом.

18+ Внимание! Данный форум содержит информацию на гомосексуальные темы, а также материалы, предназначенные для просмотра только взрослыми.

forum порно бесплатно

Скачать художественные фильмы про гомосексуалистов. Гомофобам вход воспрещен. Секс для всех желающих.